#TITLE:The Prince of Darkness;
#SUBTITLE:SDO China lv23 - [N]hok[Q] Simfile;
#ARTIST:EZ2ON;
#TITLETRANSLIT:;
#SUBTITLETRANSLIT:;
#ARTISTTRANSLIT:;
#CREDIT:[N]hok[Q];
#BANNER:bn-The Prince of Darkness.png;
#BACKGROUND:bg-The Prince of Darkness.png;
#LYRICSPATH:;
#CDTITLE:cd-The Prince of Darkness.png;
#MUSIC:The Prince of Darkness.mp3;
#OFFSET:-0.021;
#SAMPLESTART:25.146;
#SAMPLELENGTH:24.000;
#SELECTABLE:YES;
#DISPLAYBPM:160.000;
#BPMS:0.000=160.000;
#STOPS:;
#BGCHANGES:0.000=The Prince of Darkness.avi=1.000=1=1=0,
300.000=bg-The Prince of Darkness.png=1.000=0=0=1,
99999=-nosongbg-=1.000=0=0=0 // don't automatically add -songbackground-
;
// cache tags:
#FIRSTBEAT:4.000;
#LASTBEAT:300.000;
#SONGFILENAME:Songs/Super Dancer Online/The Prince of Darkness/The Prince of Darkness.sm;
#HASMUSIC:1;
#HASBANNER:1;
#MUSICLENGTH:115.440;
// end cache tags

//---------------dance-single - ----------------
#NOTES:
     dance-single:
     :
     Hard:
     23:
     1.000,1.000,1.000,0.676,1.000,874.000,250.000,78.000,0.000,38.000:
0000
0000
0000
0000
,
0101
1000
0010
1000
0100
1000
0010
1000
0001
1000
0010
1000
0100
1000
0010
1000
,
0100
1000
0010
1000
0001
1000
0010
1000
0001
1000
0010
1000
0100
1000
0010
1000
,
0100
1000
0001
1000
0010
1000
0001
1000
0001
1000
0010
1000
0100
1000
0001
1000
,
0010
1000
0010
1000
0100
1000
0100
1000
0001
1000
0100
1000
0010
1000
0001
1000
,
0011
0100
0010
1000
0011
0100
0010
0100
1001
0010
0100
0001
1010
0100
0010
0001
,
1100
0010
0001
0100
0110
1000
0001
0100
0011
1000
0100
1000
1010
0100
0010
0001
,
1100
0001
0010
0001
1100
0010
0100
0010
1100
0001
0100
0001
1101
0010
0100
0001
,
0110
1000
0011
0100
0011
1000
0011
0100
1001
0100
1010
0001
0110
1000
0011
0100
,
1011
0100
0011
0100
1010
0000
0101
0000
1001
0000
0101
0000
1010
0000
0101
0000
,
1010
0100
0010
0100
1001
0000
0100
0000
1010
0000
0110
0000
1001
0000
0100
0000
,
1001
0010
0001
0100
1010
0000
0101
0000
1001
0000
0011
0000
1100
0000
0101
0000
,
1010
0000
0110
0000
1001
0010
0101
0000
1010
0000
0011
0000
1000
0100
0010
0100
,
1011
0100
0011
0100
1010
0000
0101
0000
1001
0000
0101
0000
1010
0000
0101
0000
,
1010
0100
0010
0100
1001
0000
0100
0000
1010
0000
0110
0000
1001
0000
0100
0000
,
1001
0010
0001
0100
1010
0000
0101
0000
1001
0000
0011
0000
1100
0000
0101
0000
,
1010
0000
1110
0000
1001
0010
1101
0000
1010
0100
0011
0100
1001
0100
0010
0101
,
1020
1000
1000
2031
,
3201
0000
0001
0320
0001
0000
1032
0000
,
1203
0000
0000
0000
1000
0000
0000
0000
1000
0000
0000
0000
0001
0000
1300
0010
,
1002
0000
1000
0023
1000
0000
1230
0000
,
2310
0010
0010
3012
,
1023
0000
1000
0230
0001
0000
2301
0000
,
3201
0000
0000
0000
1000
0000
0310
0001
0120
0000
2030
0000
3201
0000
0320
0000
,
1032
0000
0000
0000
1000
0000
0013
0100
1020
0000
0000
0000
1031
0100
0010
0100
,
1002
1000
1003
1020
,
0231
0000
0001
2300
0001
0000
3021
0000
,
0231
0000
2301
3200
0321
0000
0231
0000
,
1302
1000
1000
1023
,
2130
0000
0000
0000
3100
0000
1000
0000
1100
0000
0001
0010
0201
0000
2300
0000
,
3210
0000
0000
0000
0310
0000
0100
0000
0210
0000
0301
0010
1200
0000
1300
0000
,
2010
0000
0000
0000
0010
0000
3001
0010
0101
0010
1000
0100
0011
1000
0010
0100
,
0201
0000
0000
0000
0001
0300
1010
0100
2011
0000
0001
0000
0001
0010
3100
0010
,
0001
0100
0001
0100
0001
0100
0010
1000
0001
0010
0100
0010
0001
1000
0010
0100
,
0001
1000
0100
1000
0010
1000
0001
0010
0100
0010
0100
1000
0010
0100
0001
0010
,
1000
0001
0010
0001
1000
0100
1000
0010
1000
0001
1000
0100
1000
0100
1000
0010
,
0100
0001
0010
0001
0100
0001
0010
0001
0010
0100
0010
1000
0010
0100
0010
0001
,
1100
0010
1000
0010
1100
0010
1000
0010
1100
0001
0100
0001
1100
0001
0100
0001
,
1010
0100
1000
0100
1010
0100
1000
0100
0012
0100
1000
0100
0013
1000
0010
0100
,
1010
0001
1000
0001
1010
0001
1000
0001
1100
0010
0100
0010
1100
0010
0100
0010
,
1001
0010
1001
0010
1001
0010
0001
0001
0011
1100
0011
1100
0011
1100
0011
1100
,
0011
0000
0100
1000
0110
0000
1001
0000
0010
0000
0001
0100
0011
0100
1010
0100
,
1001
0100
0010
0001
1010
0100
0011
0100
1000
0000
0100
0010
1100
0011
1100
0011
,
1100
0001
0010
0100
0011
0100
1001
0100
0010
0001
0010
0100
1010
0001
1100
0010
,
1001
0000
0000
0010
0000
0000
0100
0000
0000
0010
0000
0000
0101
0000
0000
1000
0000
0000
0011
0000
0000
0100
0000
0000
1010
0000
0001
0000
0010
0000
0100
0000
0000
1000
0000
0000
0101
0000
0000
0010
0000
0000
1100
0000
0000
0010
0000
0000
,
0101
1010
0101
0011
1100
0011
0110
1010
,
0101
1010
0110
0101
1010
0011
0110
0011
,
0101
0000
1010
0000
1100
0000
0011
0000
1100
0000
1010
0000
1100
0000
0101
0001
,
1010
0010
1100
0100
1010
1000
0101
0001
0110
0001
0010
0001
1100
0010
0100
1000
,
0022
0000
0000
0033
0022
0000
0000
0033
0220
0000
0000
0330
2002
0000
0000
3113
,
0220
0000
0000
0330
0220
0000
0000
0330
2200
0000
0000
3300
0022
0000
0033
0110
,
0220
0000
0000
0330
0220
0000
0000
0330
2200
0000
0000
3300
0022
0000
0033
1010
,
2020
0000
0000
3030
2020
0000
0000
3030
0100
1000
0100
0010
0001
0100
0010
0001
,
0010
1000
0100
1000
0010
1000
0100
1000
0001
1000
0100
1000
0001
1000
0100
0010
,
0010
1000
0010
1000
0001
1000
0010
1000
0100
1000
0100
1000
0010
1000
0100
1000
,
0100
1000
0010
1000
0001
1000
0010
1000
0100
1000
0010
1000
0001
1000
0010
1000
,
0100
1000
0100
1000
0010
0100
0010
0100
2102
0010
0100
0010
3223
0000
0000
0000
,
1331
0000
0110
0000
1010
0000
0101
0000
0001
0010
0100
1000
0001
0010
0100
1000
,
0110
0000
0011
0000
1100
0000
0110
0000
0001
0010
0100
0010
1000
0010
0100
0001
,
1010
0000
0101
0000
1010
0000
0011
0000
0001
0100
0010
1000
0001
0010
0100
1000
,
0100
0001
0010
0001
1000
0010
0100
0001
1000
0100
0010
0001
1000
0010
0100
0001
,
1000
0010
0100
0001
0010
1000
0100
0010
1000
0100
0010
0001
0010
0100
1000
0010
,
1000
0100
0010
0001
0010
0100
1000
0100
0001
0010
0100
1000
0001
0010
1000
0100
,
1000
0010
0100
0001
1000
0010
0100
0001
1000
0100
0010
0001
1000
0010
0100
0001
,
1000
0100
0010
0001
0010
0100
1000
0100
0010
0001
0010
0100
1000
0100
0010
1000
,
0101
1000
0010
1000
0100
1000
0010
1000
0001
1000
0010
1000
0100
1000
0010
1000
,
0100
1000
0010
1000
0001
1000
0010
1000
0001
1000
0010
1000
0100
1000
0010
1000
,
0100
1000
0001
1000
0010
1000
0001
1000
0001
1000
0010
1000
0100
1000
0001
1000
,
0010
1000
0010
1000
0100
1000
0100
1000
0001
1000
0100
1000
0010
1000
0001
1000
,
0011
0100
0010
1000
0011
0100
0010
0100
1001
0010
0100
0001
1010
0100
0010
0001
,
1100
0010
0001
0100
0110
1000
0001
0100
0011
1000
0100
1000
1010
0100
0010
0001
,
1100
0001
0010
0001
1100
0010
0100
0010
1100
0001
0100
0001
1101
0010
0100
0010
,
1001
0110
1001
0110
1001
0110
1001
0110
1100
0011
1100
0011
1100
0011
1100
0011
,
2202
0000
0000
0000
,
0000
0000
0000
0000
,
3303
0000
0000
0000
;

//---------------dance-solo - ----------------
#NOTES:
     dance-solo:
     :
     Hard:
     23:
     1.000,1.000,1.000,0.676,1.000,874.000,251.000,78.000,0.000,39.000:
000000
000000
000000
000000
,
001001
100000
000100
100000
001000
100000
000100
100000
000001
100000
000100
100000
010000
100000
000100
100000
,
001000
100000
000100
100000
000001
100000
000100
100000
000001
100000
000100
100000
010000
100000
000100
100000
,
001000
100000
000001
100000
000100
100000
000001
100000
000001
100000
000100
100000
010000
100000
000001
100000
,
000100
100000
000100
100000
001000
100000
001000
100000
000001
100000
010000
100000
000100
100000
000001
100000
,
000110
001000
000100
100000
000101
001000
000100
001000
100001
000100
010000
000001
100100
001000
000100
000001
,
110000
000100
000001
001000
001100
100000
000001
001000
000101
100000
001000
100000
100100
001000
000100
000001
,
110000
000001
000100
000010
101000
000100
001000
000100
101000
000001
001000
000001
101001
000100
001000
000010
,
010100
100000
000101
001000
000101
100000
000101
001000
100001
001000
100100
000001
010100
100000
000101
001000
,
100101
010000
000101
001000
100100
000000
001001
000000
100001
000000
001010
000000
100100
000000
001001
000000
,
100100
001000
000100
001000
100001
000000
001000
000000
100100
000000
001100
000000
100010
000000
001000
000000
,
100001
000100
000001
010000
100100
000000
001001
000000
100001
000000
000101
000000
101000
000000
001001
000000
,
100100
000000
010100
000000
100010
000100
001001
000000
100100
000000
000101
000000
100000
001000
000100
001000
,
100101
001000
000110
001000
100100
000000
001001
000000
100001
000000
001001
000000
100100
000000
001010
000000
,
100100
010000
000100
001000
100001
000000
001000
000000
100100
000000
010100
000000
100010
000000
001000
000000
,
100010
000100
000001
001000
100100
000000
001001
000000
100001
000000
000101
000000
101000
000000
001010
000000
,
100100
000000
101100
000000
100001
000100
101010
000000
100100
001000
000101
001000
100001
001000
000100
001010
,
100200
100000
100000
200301
,
320010
000000
000001
030201
000001
000000
100302
000000
,
102003
000000
000000
000000
100000
000000
000000
000000
100000
000000
000000
000000
000010
000000
103000
000100
,
100002
000000
100000
000203
100000
000000
120300
000000
,
230100
000100
000100
300102
,
100203
000000
100000
002300
000001
000000
203001
000000
,
302010
000000
000000
000000
100000
000000
003100
000001
010200
000000
200300
000000
320001
000000
030200
000000
,
100302
000000
000000
000000
100000
000000
000103
010000
100200
000000
000000
000000
100301
001000
000100
010000
,
100002
100000
100003
100200
,
020310
000000
000001
230000
000001
000000
300201
000000
,
002301
000000
203001
302000
003201
000000
020310
000000
,
130002
100000
100000
100203
,
210300
000000
000000
000000
301000
000000
100000
000000
101000
000000
000001
000100
002010
000000
203000
000000
,
320100
000000
000000
000000
030100
000000
001000
000000
002100
000000
003010
000100
102000
000000
103000
000000
,
200100
000000
000000
000000
000100
000000
300001
000100
001010
000100
100000
010000
000101
100000
000100
001000
,
020001
000000
000000
000000
000001
030000
100100
001000
200101
000000
000001
000000
000010
000100
301000
000100
,
000001
001000
000001
010000
000001
001000
000100
100000
000001
000100
001000
000100
000010
100000
000100
001000
,
000001
100000
001000
100000
000100
100000
000001
000100
001000
000100
010000
100000
000100
001000
000010
000100
,
100000
000001
000100
000001
100000
010000
100000
000100
100000
000010
010000
001000
100000
001000
100000
000100
,
001000
000001
000100
000001
010000
000001
000100
000010
000100
001000
000100
100000
000100
010000
000100
000010
,
101000
000100
100000
000100
101000
000100
100000
000100
101000
000001
001000
000001
101000
000001
001000
000010
,
100100
001000
100000
010000
100100
001000
100000
010000
000102
001000
100000
001000
000103
100000
000100
001000
,
100100
000010
100000
000001
100100
000001
100000
000001
101000
000100
001000
000100
110000
000100
010000
000100
,
100010
000100
100001
000100
100001
000100
000001
000001
000101
101000
000101
110000
000101
101000
000101
101000
,
000110
000000
001000
100000
010100
000000
100001
000000
000100
000000
000001
001000
000101
010000
100100
001000
,
100001
001000
000100
000010
100100
001000
000101
001000
100000
000000
010000
000100
101000
000101
101000
000110
,
101000
000001
000100
001000
000101
010000
100001
001000
000100
000001
000100
010000
100100
000001
101000
000100
,
100001
000000
000000
000100
000000
000000
001000
000000
000000
000100
000000
000000
001001
000000
000000
100000
000000
000000
000101
000000
000000
010000
000000
000000
100010
000000
000001
000000
000100
000000
001000
000000
000000
100000
000000
000000
010001
000000
000000
000100
000000
000000
101000
000000
000000
000100
000000
000000
,
001010
100100
001001
000101
101000
000011
010100
100100
,
001001
100100
010100
001001
100100
000101
001100
000110
,
001001
000000
100100
000000
110000
000000
000101
000000
101000
000000
100100
000000
101000
000000
001001
000001
,
100010
000100
101000
010000
100100
100000
001001
000001
001100
000010
000100
000001
101000
000100
001000
100000
,
000202
000000
000000
000303
000202
000000
000000
000303
020200
000000
000000
030300
200020
000000
000000
301130
,
002200
000000
000000
003300
002200
000000
000000
003300
202000
000000
000000
303000
000202
000000
000303
001100
,
022000
000000
000000
033000
022000
000000
000000
033000
220000
000000
000000
330000
000022
000000
000033
100010
,
200200
000000
000000
300300
200200
000000
000000
300300
010000
100000
001000
000100
000010
001000
000100
000001
,
000100
100000
001000
100000
000100
100000
001000
100000
000001
100000
010000
100000
000010
100000
001000
000100
,
000100
100000
000100
100000
000001
100000
000100
100000
001000
100000
001000
100000
000100
100000
010000
100000
,
001000
100000
000100
100000
000001
100000
000100
100000
001000
100000
000010
100000
000001
100000
000100
100000
,
010000
100000
001000
100000
000100
001000
000010
001000
210002
000010
001000
000100
302203
000000
000000
000000
,
103301
000000
001100
000000
100100
000000
001010
000000
000010
000100
001000
100000
000001
000100
001000
100000
,
010100
000000
000101
000000
101000
000000
001100
000000
000010
000100
001000
000100
100000
000100
010000
000001
,
100100
000000
001001
000000
100100
000000
000101
000000
000010
001000
000100
100000
000001
000100
001000
100000
,
010000
000001
000100
000001
100000
000100
001000
000001
100000
001000
000100
000001
100000
000100
010000
000001
,
100000
000100
001000
000001
000100
100000
010000
000100
100000
001000
000100
000010
000100
001000
100000
000100
,
100000
001000
000100
000001
000100
001000
100000
001000
000001
000100
010000
100000
000001
000100
100000
001000
,
100000
000100
010000
000010
100000
000100
001000
000001
100000
001000
000100
000001
100000
000100
001000
000001
,
100000
001000
010000
000010
000100
000001
001000
000010
010000
100000
001000
000010
001000
010000
001000
000100
,
001001
100000
000100
100000
010000
100000
000100
100000
000010
100000
000100
100000
010000
100000
000100
100000
,
001000
100000
000100
100000
000001
100000
000100
100000
000001
100000
000010
100000
010000
100000
000100
100000
,
001000
100000
000010
100000
000100
100000
000001
100000
000001
100000
000100
100000
010000
100000
000001
100000
,
000010
100000
000010
100000
001000
100000
001000
100000
000010
100000
001000
100000
000100
100000
000001
100000
,
000110
010000
000100
100000
000101
001000
000100
010000
100001
000100
001000
000001
100100
001000
000100
000010
,
101000
000100
000001
001000
010100
100000
000001
001000
000110
100000
001000
100000
100100
001000
000100
000001
,
110000
000001
000100
000001
101000
000010
001000
000010
101000
000001
001000
000001
101001
000100
001000
000100
,
100001
010100
100001
010100
100001
010100
100001
001100
110000
000101
101000
000101
101000
000101
101000
000101
,
202002
000000
000000
000000
,
000000
000000
000000
000000
,
303003
000000
000000
000000
,
000000
000000
000000
000000
;
